Создать аккаунт
Войти





19.9 MB

Twitter Facebook Google Livejournal Pinterest

Скачать русские субтитры к paradise kiss


Описание: Скачать русские субтитры к paradise kiss
Имя файла: russkie-subtitry-k-paradise-kiss
General
Complete name                    : H:\Видео\iPhone\Paradise Kiss [HDTVRip 480x272 x264 AAC]\Paradise Kiss - 01 [HDTVRip 480x272 x264 AAC].m4v
Format                           : MPEG-4
Format profile                   : Base Media / Version 2
Codec ID                         : mp42
File size                        : 147 MiB
Duration                         : 22mn 44s
Overall bit rate                 : 902 Kbps
Movie name                       : Atelier
Album                            : Paradise Kiss
Track name/Position              : 1
Track name/Total                 : 12
Performer                        : Кобаяси Осаму
Genre                            : Animation
Encoded date                     : 2005-10-14T00:00:00
Tagged date                      : UTC 2011-03-09 19:49:36
Copyright                        : (с) Madhouse Studios
Cover                            : Yes
Comment                          : Encode by Mangaku for RuTracker.org
iTunEXTC                         : jp-movie|R15+|350|
iTunMOVI                         : / iTunMOVI                         : / www.apple.com/DTDs/PropertyList-1.0.dtd"> / / /   directors /   /     /       name /       Кобаяси Осаму /     /   / /
tvsh                             : Paradise Kiss
tvsn                             : 1
tves                             : 1
desc                             : «Есть такое место… Туда ведёт небольшая лестница; там витает запах китайских конфет. За дверью пронзительно-розового цвета слышны звуки сумасшедшей музыки. Это место похоже на подвал. Они называют его своим ателье.»
ldes                             : «Есть такое место… Туда ведёт небольшая лестница; там витает запах китайских конфет. За дверью пронзительно-розового цвета слышны звуки сумасшедшей музыки. Это место похоже на подвал. Они называют его своим ателье.» /  / Всю свою жизнь – от раннего младенчества до нынешних 18-ти – Юкари была «хорошей девочкой». Она прекрасно учится, готовится поступить в престижный вуз, влюблена в своего одноклассника. И вдруг в один прекрасный день на улице к ней подходит парень с устрашающим пирсингом и просит чтобы она стала манекенщицей для «Paradise kiss» новой марки одежды от молодых, амбициозных и очень альтернативных дизайнеров
hdvd                             : 0
stik                             : 10
Video
ID                               : 1
Format                           : AVC
Format/Info                      : Advanced Video Codec
Format profile                   : Baseline@L2.1
Format settings, CABAC           : No
Format settings, ReFrames        : 6 frames
Codec ID                         : avc1
Codec ID/Info                    : Advanced Video Coding
Duration                         : 22mn 44s
Bit rate mode                    : Variable
Bit rate                         : 640 Kbps
Width                            : 480 pixels
Height                           : 272 pixels
Display aspect ratio             : 16:9
Frame rate mode                  : Variable
Frame rate                       : 23.976 fps
Original frame rate              : 47.952 fps
Minimum frame rate               : 23.974 fps
Maximum frame rate               : 23.981 fps
Color space                      : YUV
Chroma subsampling               : 4:2:0
Bit depth                        : 8 bits
Scan type                        : Progressive
Bits/(PixelFrame)               : 0.204
Stream size                      : 104 MiB (71%)
Writing library                  : x264 core 112
Encoding settings                : cabac=0 / ref=6 / deblock=1:0:0 / analyse=0x1:0x111 / me=umh / subme=7 / psy=1 / psy_rd=1.00:0.00 / mixed_ref=1 / me_range=16 / chroma_me=1 / trellis=0 / 8x8dct=0 / cqm=0 / deadzone=21,11 / fast_pskip=1 / chroma_qp_offset=-2 / threads=3 / sliced_threads=0 / nr=0 / decimate=1 / interlaced=0 / constrained_intra=0 / bframes=0 / weightp=0 / keyint=240 / keyint_min=23 / scenecut=40 / intra_refresh=0 / rc_lookahead=40 / rc=2pass / mbtree=1 / bitrate=640 / ratetol=1.0 / qcomp=0.60 / qpmin=3 / qpmax=51 / qpstep=4 / cplxblur=20.0 / qblur=0.5 / ip_ratio=1.40 / aq=1:1.00
Encoded date                     : UTC 2011-03-07 15:49:56
Tagged date                      : UTC 2011-03-07 16:01:39
Color primaries                  : BT.709-5, BT.1361, IEC 61966-2-4, SMPTE RP177
Transfer characteristics         : BT.709-5, BT.1361
Matrix coefficients              : BT.709-5, BT.1361, IEC 61966-2-4 709, SMPTE RP177
Audio #1
ID                               : 2
Format                           : AAC
Format/Info                      : Advanced Audio Codec
Format version                   : Version 4
Format profile                   : LC
Format settings, SBR             : No
Codec ID                         : 40
Duration                         : 22mn 44s
Bit rate mode                    : Variable
Bit rate                         : 128 Kbps
Maximum bit rate                 : 212 Kbps
Channel(s)                       : 2 channels
Channel positions                : Front: L R
Sampling rate                    : 48.0 KHz
Stream size                      : 20.8 MiB (14%)
Language                         : Japanese
Encoded date                     : UTC 2011-03-07 15:49:56
Tagged date                      : UTC 2011-03-07 16:01:38
Audio #2
ID                               : 3
Format                           : AAC
Format/Info                      : Advanced Audio Codec
Format version                   : Version 4
Format profile                   : LC
Format settings, SBR             : No
Codec ID                         : 40
Duration                         : 22mn 44s
Bit rate mode                    : Variable
Bit rate                         : 127 Kbps
Maximum bit rate                 : 255 Kbps
Channel(s)                       : 2 channels
Channel positions                : Front: L R
Sampling rate                    : 48.0 KHz
Stream size                      : 20.6 MiB (14%)
Language                         : Russian
Encoded date                     : UTC 2011-03-07 15:49:56
Tagged date                      : UTC 2011-03-07 16:01:38
Text
ID                               : 4
Format                           : Timed text
Muxing mode                      : sbtl
Codec ID                         : tx3g
Duration                         : 21mn 16s
Bit rate mode                    : Variable
Bit rate                         : 103 bps
Stream size                      : 16.0 KiB (0%)
Language                         : Russian
Encoded date                     : UTC 2011-03-07 15:49:56
Tagged date                      : UTC 2011-03-07 16:00:51

Cсылка для сайта (HTML):

Cсылка для форума (BBCode):